<?xml version="1.0" standalone="no"?>
<!DOCTYPE svg PUBLIC "-//W3C//DTD SVG 1.1//EN" "http://www.w3.org/Graphics/SVG/1.1/DTD/svg11.dtd" >
<svg xmlns="http://www.w3.org/2000/svg">
<metadata>Generated by IcoMoon</metadata>
<defs>
<font id="icomoon" horiz-adv-x="1024">
<font-face units-per-em="1024" ascent="960" descent="-64" />
<missing-glyph horiz-adv-x="1024" />
<glyph unicode="&#x20;" horiz-adv-x="512" d="" />
<glyph unicode="&#xe900;" glyph-name="s1_logo" horiz-adv-x="736" d="M17.297 583.299c0-14.147 10.595-21.222 24.722-17.683l197.776 61.898c12.361 3.539 24.722-3.536 24.722-17.683v-656.141c0-14.147 10.595-21.222 24.722-17.683l155.395 49.52c12.362 3.536 24.723 19.453 24.723 31.834v656.138c0 14.148 0 37.14 0 49.52v134.411c0 14.148-10.595 21.223-24.723 17.686l-400.849-123.8c-15.893-5.306-26.488-19.454-26.488-33.603v-134.412zM573.542 915.794c-12.362-3.537-24.723-19.454-24.723-31.834v-134.411c0-14.148 10.595-21.223 24.723-17.686l137.738 42.446c12.362 3.537 24.72 19.454 24.72 31.834v134.411c0 14.149-10.595 21.223-24.72 17.686l-137.738-42.446z" />
<glyph unicode="&#xe901;" glyph-name="down" d="M512 279.040c-10.24 0-20.48 5.12-30.72 10.24l-256 256c-15.36 15.36-15.36 46.080 0 61.44s46.080 15.36 61.44 0l225.28-225.28 225.28 225.28c15.36 15.36 46.080 15.36 61.44 0s15.36-46.080 0-61.44l-256-256c-10.24-10.24-20.48-10.24-30.72-10.24z" />
<glyph unicode="&#xe902;" glyph-name="left" d="M662.626 726.627c12.497-12.497 12.497-32.758 0-45.255l-233.37-233.373 233.37-233.374c12.497-12.497 12.497-32.755 0-45.252s-32.755-12.497-45.252 0l-256.001 256c-12.497 12.497-12.497 32.755 0 45.252l256.001 256.001c12.497 12.497 32.755 12.497 45.252 0z" />
<glyph unicode="&#xe903;" glyph-name="right" d="M361.373 726.627c-12.497-12.497-12.497-32.758 0-45.255l233.371-233.373-233.371-233.374c-12.497-12.497-12.497-32.755 0-45.252s32.758-12.497 45.255 0l255.999 256c12.497 12.497 12.497 32.755 0 45.252l-255.999 256.001c-12.497 12.497-32.758 12.497-45.255 0z" />
<glyph unicode="&#xe904;" glyph-name="close" horiz-adv-x="983" d="M737.28 169.472c-8.192 0-16.384 4.096-20.48 8.192l-225.28 225.28-225.28-221.184c-12.288-12.288-32.768-12.288-45.056 0s-12.288 32.768 0 45.056l225.28 225.28-221.184 221.184c-12.288 12.288-12.288 28.672 0 40.96s32.768 12.288 45.056 0l225.28-225.28 221.184 225.28c12.288 12.288 32.768 12.288 45.056 0s12.288-32.768 0-45.056l-225.28-225.28 225.28-225.28c12.288-12.288 12.288-32.768 0-45.056-8.192 0-16.384-4.096-24.576-4.096z" />
<glyph unicode="&#xe905;" glyph-name="check" horiz-adv-x="1210" d="M1032.937 923.68l-666.529-643.258-176.873 188.975c-32.582 30.72-83.782 32.582-121.019 6.516-36.305-26.996-46.545-74.473-24.204-112.64l209.455-340.716c20.48-31.651 55.854-51.2 95.883-51.2 38.167 0 74.474 19.549 94.954 51.2 33.513 43.756 673.045 806.171 673.045 806.171 83.782 85.644-17.687 161.047-84.713 95.884v-0.931z" />
<glyph unicode="&#xe906;" glyph-name="search" d="M160 490.667c0-170.842 138.493-309.333 309.333-309.333 83.652 0 159.552 33.207 215.232 87.155 0.956 1.306 2.027 2.556 3.209 3.738s2.432 2.253 3.738 3.209c53.948 55.68 87.155 131.58 87.155 215.232 0 170.84-138.492 309.333-309.333 309.333-170.84 0-309.333-138.493-309.333-309.333zM709.726 205.018c-64.947-54.716-148.821-87.684-240.393-87.684-206.186 0-373.333 167.147-373.333 373.333s167.147 373.333 373.333 373.333c206.187 0 373.333-167.147 373.333-373.333 0-91.571-32.969-175.445-87.684-240.393l163.644-163.648c12.497-12.497 12.497-32.755 0-45.252s-32.755-12.497-45.252 0l-163.648 163.644z" />
<glyph unicode="&#xe907;" glyph-name="globe" d="M475 916c-89.2-7.6-172.8-39.2-244.6-92.8-27.4-20.4-73.2-66.2-93.6-93.6-138.6-186-122.6-441.2 38.2-607.4 90.2-93.2 207.6-142.8 337-142.8 54 0 98.6 7 146 22.6 72 23.8 130.4 60.2 185.2 114.8 62.2 62.4 102.2 132.2 123.6 216.2 18.6 72.2 18.6 157.6 0 230-39.6 155.8-155.6 280.2-308.4 330.8-56.4 18.6-126 27-183.4 22.2zM529.2 826.2c40.2-23.2 79.6-111.4 97.8-218.8 5.6-34 11-84 11-103.4v-14l-252.8 1 0.6 14c0.6 22.8 5.8 69.8 11.2 102.2 14.8 88.6 45.4 167.6 78.6 203.2 11.6 12.4 27 21.6 36.4 21.6 4 0 11.2-2.4 17.2-5.8zM361.2 787.8c-32.4-71.2-55-173.2-60.4-273.2l-1.4-24.6h-169.4l1.2 8.6c16 111.6 77.2 208.8 169.6 269.8 17.2 11.4 65 36.4 66.6 35 0.4-0.4-2.4-7.4-6.2-15.6zM685.2 790.4c112.4-56.6 189.2-164.4 207.6-291.8l1.2-8.6h-169.4l-1.4 24.6c-4 72.6-18.4 154-38.4 215.6-6 18.8-12.4 35-28.2 71.4-1.4 3.4 3.6 1.4 28.6-11.2zM300.8 381.6c5.4-98.2 26.8-196.6 58.2-268.2 5-11 8.6-20.4 8.2-20.8-0.2-0.4-11.2 4.6-24.4 11.2-49.6 24.4-89.4 55.6-124.4 97.2-46.6 55.4-76.6 123-87.2 196.6l-1.2 8.4h169.4l1.4-24.4zM638 392c0-19.8-5.4-70-11.2-104-18.6-108.2-57.4-195-97.6-218.2-13-7.4-21.4-7.4-34.4 0-40.4 23.2-80 112-97.8 219-6.8 41.2-12.6 101.6-11.2 115.8 0.2 0.8 57 1.4 126.2 1.4h126v-14zM893 398.6c-8-48.6-17.4-80-35-116.2-38.4-79.4-98-139.6-176.8-178.6-13.2-6.6-24.2-11.6-24.4-11.2-0.4 0.4 3.2 9.8 8.2 21 31 70.6 53 171.2 58.2 268l1.4 24.4h169.6l-1.2-7.4z" />
<glyph unicode="&#xe908;" glyph-name="info" d="M512-10.667c-253.013 0-458.667 205.653-458.667 458.667s205.653 458.667 458.667 458.667c253.013 0 458.667-205.653 458.667-458.667s-205.653-458.667-458.667-458.667zM512 842.667c-217.6 0-394.667-177.067-394.667-394.667s177.067-394.667 394.667-394.667c217.6 0 394.667 177.067 394.667 394.667s-177.067 394.667-394.667 394.667zM512 373.333c-17.493 0-32 14.507-32 32v213.333c0 17.493 14.507 32 32 32s32-14.507 32-32v-213.333c0-17.493-14.507-32-32-32zM512 234.672c-5.547 0-11.093 1.28-16.213 3.413s-9.813 5.12-14.080 8.96c-3.84 4.267-6.827 8.533-8.96 14.080-2.133 5.12-3.413 10.667-3.413 16.213s1.28 11.093 3.413 16.213c2.133 5.12 5.12 9.813 8.96 14.080 4.267 3.84 8.96 6.827 14.080 8.96 10.24 4.267 22.187 4.267 32.427 0 5.12-2.133 9.813-5.12 14.080-8.96 3.84-4.267 6.827-8.96 8.96-14.080s3.413-10.667 3.413-16.213c0-5.547-1.28-11.093-3.413-16.213-2.133-5.547-5.12-9.813-8.96-14.080-4.267-3.84-8.96-6.827-14.080-8.96s-10.667-3.413-16.213-3.413z" />
<glyph unicode="&#xe909;" glyph-name="success" d="M512-64c-68.267 0-134.095 12.19-195.048 39.010-63.39 26.819-119.467 63.39-165.79 112.152-48.762 48.762-85.333 104.838-112.152 165.79s-39.010 126.781-39.010 195.048 12.19 134.095 39.010 195.048c26.819 63.39 63.39 119.467 112.152 165.79 48.762 48.762 104.838 85.333 165.79 112.152 124.343 51.2 268.19 51.2 392.533 0 63.39-26.819 119.467-63.39 165.79-112.152 48.762-48.762 85.333-104.838 112.152-165.79 26.819-63.39 39.010-129.219 39.010-195.048 0-68.267-12.19-134.095-39.010-195.048-26.819-63.39-63.39-119.467-112.152-165.79-48.762-48.762-104.838-85.333-165.79-112.152-63.39-26.819-129.219-39.010-197.486-39.010zM512 911.238c-60.952 0-121.905-12.19-177.981-34.133-56.076-24.381-107.276-56.076-151.162-99.962s-78.019-92.648-99.962-151.162c-21.943-56.076-34.133-117.029-34.133-177.981s12.19-121.905 34.133-177.981c24.381-56.076 56.076-107.276 99.962-151.162s92.648-78.019 151.162-99.962c112.152-46.324 241.371-46.324 353.524 0 56.076 24.381 107.276 56.076 151.162 99.962s78.019 92.648 99.962 151.162c24.381 56.076 34.133 117.029 34.133 177.981s-12.19 121.905-34.133 177.981c-24.381 56.076-56.076 107.276-99.962 151.162s-92.648 78.019-151.162 99.962c-53.638 21.943-114.59 34.133-175.543 34.133zM458.362 316.343c-7.314 0-12.19 2.438-17.067 7.314l-107.276 107.276c-9.752 9.752-9.752 24.381 0 34.133s24.381 9.752 34.133 0l90.21-90.21 199.924 199.924c9.752 9.752 24.381 9.752 34.133 0s9.752-24.381 0-34.133l-216.99-216.99c-4.876-4.876-12.19-7.314-17.067-7.314z" />
<glyph unicode="&#xe90a;" glyph-name="facebook" horiz-adv-x="512" d="M320.007 608.283v127.735c0.032 35.322 28.657 63.947 63.976 63.979h63.982v160.003h-128.014c-106.035 0-191.993-85.958-191.993-191.993v0-159.724h-127.958v-160.283h128.014v-512h191.993v512h128.014l63.979 160.283z" />
<glyph unicode="&#xe90b;" glyph-name="instagram" d="M704.003 960h-384.006c-176.718-0.028-319.969-143.279-319.997-319.994v-384.009c0.028-176.718 143.279-319.969 319.994-319.997h384.009c176.718 0.028 319.969 143.279 319.997 319.994v384.009c-0.028 176.718-143.279 319.969-319.994 319.997h-0.003zM927.913 255.997c-0.194-123.584-100.326-223.717-223.892-223.91h-384.025c-123.584 0.194-223.717 100.326-223.91 223.892v384.025c0.194 123.584 100.326 223.717 223.892 223.91h384.025c123.584-0.194 223.717-100.326 223.91-223.892v-0.019zM511.976 704.012c-141.378 0-255.988-114.61-255.988-255.988s114.61-255.988 255.988-255.988c141.378 0 255.988 114.61 255.988 255.988v0c-0.028 141.367-114.621 255.96-255.985 255.988h-0.003zM511.976 288.026c-88.365 0-159.998 71.634-159.998 159.998s71.634 159.998 159.998 159.998c88.365 0 159.998-71.634 159.998-159.998v0c-0.138-88.309-71.69-159.86-159.985-159.998h-0.013zM821.361 723.191c0-18.845-15.277-34.122-34.122-34.122s-34.122 15.277-34.122 34.122c0 18.845 15.277 34.122 34.122 34.122s34.122-15.277 34.122-34.122z" />
<glyph unicode="&#xe90c;" glyph-name="linkedin" horiz-adv-x="1121" d="M36.425-64h145.699c20.117 0 36.425 16.308 36.425 36.425v636.748c0 20.117-16.308 36.425-36.425 36.425v0h-145.699c-20.117 0-36.425-16.308-36.425-36.425v-636.748c0-20.117 16.308-36.425 36.425-36.425v0zM36.425 757.815h145.699c20.117 0 36.425 16.308 36.425 36.425v129.404c0 20.117-16.308 36.425-36.425 36.425v0h-145.699c0 0 0 0 0 0-20.117 0-36.425-16.308-36.425-36.425 0-0.024 0-0.048 0-0.072v0.004-129.404c0.039-20.087 16.332-36.356 36.425-36.356 0 0 0 0 0 0v0zM1066.176 571.721c-23.735 29.114-54.21 51.845-89.096 65.951l-1.487 0.531c-37.794 16.464-81.825 26.044-128.093 26.044-1.448 0-2.894-0.009-4.337-0.028l0.219 0.002c-1.131 0.014-2.468 0.022-3.806 0.022-97.703 0-185.298-43.275-244.664-111.702l-0.341-0.401c-13.694-14.857-23.347-11.639-23.347 8.49v48.543c0 20.117-16.308 36.425-36.425 36.425v0h-130.088c-20.117 0-36.425-16.308-36.425-36.425v0-636.748c0-20.117 16.308-36.425 36.425-36.425h145.288c20.117 0 36.425 16.308 36.425 36.425v0 221.492c-0.486 9.843-0.763 21.375-0.763 32.972 0 55.592 6.366 109.698 18.408 161.627l-0.939-4.807c11.185 34.262 32.817 62.54 61.079 81.812l0.542 0.349c27.831 19.462 62.382 31.098 99.651 31.098 0.784 0 1.566-0.005 2.347-0.015l-0.119 0.001c1.113 0.034 2.422 0.054 3.735 0.054 26.88 0 51.857-8.153 72.591-22.121l-0.464 0.294c21.053-14.872 36.951-35.793 45.278-60.219l0.253-0.854c9.324-41.307 14.666-88.747 14.666-137.434 0-12.517-0.353-24.951-1.050-37.294l0.077 1.711v-268.94c0-20.117 16.308-36.425 36.425-36.425v0h145.699c20.117 0 36.425 16.308 36.425 36.425v0 360.755c0.151 5.364 0.237 11.677 0.237 18.011 0 45.626-4.473 90.207-13.003 133.328l0.716-4.339c-7.932 35.076-22.527 65.885-42.484 92.434l0.445-0.619z" />
<glyph unicode="&#xe90d;" glyph-name="twitter" horiz-adv-x="1261" d="M1260.67 838.833c-43.231-19.706-93.381-34.046-145.974-40.48l-2.493-0.249c53.421 32.402 93.593 82.084 113.132 141.16l0.526 1.835c-47.303-28.508-102.343-50.292-160.96-62.24l-3.354-0.571c-47.315 50.193-114.248 81.444-188.481 81.444-142.94 0-258.816-115.876-258.816-258.816 0-20.599 2.407-40.636 6.954-59.846l-0.351 1.757c-215.413 11.129-404.887 113.497-531.929 268.895l-1.040 1.312c-21.984-37.25-34.972-82.078-34.972-129.939 0-89.349 45.265-168.126 114.113-214.651l0.916-0.583c-43.157 1.332-83.304 13.035-118.401 32.682l1.307-0.672v-3.246c0.055-124.707 88.279-228.792 205.715-253.304l1.682-0.294c-20.439-5.734-43.912-9.032-68.154-9.037h-0.003c-17.232 0.005-34.049 1.766-50.288 5.113l1.604-0.276c34.032-103.649 129.034-177.548 241.586-179.583l0.238-0.003c-87.226-68.837-198.745-110.414-319.975-110.414-0.558 0-1.117 0.001-1.675 0.003h0.086c-21.864 0.1-43.297 1.462-64.364 4.015l2.635-0.26c111.889-73.101 248.893-116.585 396.053-116.585 0.145 0 0.291 0 0.436 0h-0.024c1.518-0.011 3.313-0.018 5.109-0.018 403.55 0 730.692 327.142 730.692 730.692 0 1.796-0.006 3.591-0.019 5.384l0.002-0.275-0.891 33.474c51.064 36.769 94.016 81.058 128.21 131.742l1.166 1.834z" />
<glyph unicode="&#xe90e;" glyph-name="pinterest" horiz-adv-x="832" d="M430 960c-280.8 0-430-179.8-430-376 0-91 50.8-204.4 132.2-240.4 23.2-10.4 20.2 2.4 40.2 78.6 1.6 6.4 0.8 11.8-4.4 17.8-116.4 134.6-22.8 411.2 245.4 411.2 388 0 315.4-536.8 67.4-536.8-64 0-111.6 50.2-96.4 112.2 18.2 74 54 153.4 54 206.8 0 134.4-200.2 114.4-200.2-63.6 0-55 19.4-92.2 19.4-92.2s-64.4-260-76.4-308.6c-20.2-82.2 2.8-215.4 4.8-227 1.2-6.4 8.4-8.4 12.2-3.2 6.4 8.4 84.2 119.4 106 199.6 8 29.2 40.4 147.8 40.4 147.8 21.4-38.8 83.4-71.2 149.2-71.2 196 0 337.8 172.4 337.8 386.2-0.4 205.4-175.8 358.8-401.6 358.8v0z" />
<glyph unicode="&#xe90f;" glyph-name="youtube" horiz-adv-x="864" d="M849.006 441.791c-10.161 46.289-48.547 80.159-93.707 84.675-107.255 12.419-215.638 12.419-324.022 12.419s-216.767 0-324.022-12.419c-45.16-4.516-82.417-39.515-93.707-84.675-13.548-65.482-13.548-136.609-13.548-204.348s0-138.867 14.677-204.348c10.161-46.289 48.547-80.159 93.707-84.675 107.255-12.419 215.638-12.419 324.022-12.419s216.767 0 324.022 12.419c45.16 4.516 82.417 39.515 93.707 84.675 14.677 65.482 14.677 136.609 14.677 204.348-1.129 67.74 0 138.867-15.806 204.348zM246.121 390.986h-62.095v-331.925h-57.579v331.925h-62.095v54.192h181.768v-54.192zM404.181 59.061h-51.934v31.612c-20.322-23.709-40.644-34.999-59.837-34.999-16.935 0-28.225 6.774-33.87 21.451-3.387 9.032-4.516 22.58-4.516 42.902v226.928h51.934v-212.251c0-12.419 0-18.064 0-20.322 1.129-7.903 5.645-12.419 12.419-12.419 10.161 0 21.451 7.903 32.741 24.838v220.154h51.934l1.129-287.894zM602.884 144.864c0-27.096-2.258-46.289-5.645-57.579-6.774-21.451-21.451-32.741-41.773-32.741-18.064 0-36.128 10.161-54.192 31.612v-28.225h-51.934v387.246h51.934v-126.448c16.935 20.322 34.999 31.612 54.192 31.612 20.322 0 34.999-11.29 41.773-32.741 3.387-11.29 5.645-30.483 5.645-57.579v-115.158zM799.33 193.411h-104.997v-50.805c0-27.096 9.032-39.515 27.096-39.515 12.419 0 20.322 6.774 23.709 21.451 0 3.387 1.129 14.677 1.129 34.999h53.063v-7.903c0-16.935-1.129-28.225-1.129-33.87-2.258-11.29-5.645-22.58-12.419-31.612-14.677-21.451-36.128-31.612-63.224-31.612s-48.547 10.161-63.224 29.354c-11.29 14.677-16.935 37.257-16.935 67.74v100.481c0 30.483 4.516 53.063 15.806 67.74 14.677 19.193 36.128 29.354 62.095 29.354s47.418-10.161 62.095-29.354c11.29-14.677 15.806-37.257 15.806-67.74l1.129-58.708zM721.429 302.924c-16.935 0-25.967-13.548-25.967-39.515v-27.096h51.934v27.096c0 27.096-9.032 39.515-25.967 39.515zM527.241 302.924c-9.032 0-16.935-4.516-25.967-12.419v-176.123c9.032-9.032 16.935-12.419 25.967-12.419 14.677 0 22.58 12.419 22.58 38.386v124.19c1.129 25.967-6.774 38.386-22.58 38.386zM556.595 564.851c19.193 0 39.515 11.29 59.837 36.128v-31.612h53.063v291.281h-53.063v-222.412c-11.29-16.935-22.58-24.838-33.87-24.838-6.774 0-11.29 4.516-12.419 12.419-1.129 2.258-1.129 7.903-1.129 20.322v214.509h-53.063v-230.315c0-20.322 2.258-34.999 4.516-42.902 7.903-15.806 19.193-22.58 36.128-22.58zM189.671 727.427v-158.060h58.708v158.060l69.998 232.573h-58.708l-39.515-153.544-42.902 153.544h-62.095c12.419-36.128 24.838-72.256 37.257-108.384 20.322-55.321 31.612-95.965 37.257-124.19zM397.407 564.851c25.967 0 47.418 10.161 62.095 29.354 11.29 14.677 16.935 37.257 16.935 68.869v101.61c0 31.612-5.645 54.192-16.935 68.869-14.677 20.322-34.999 29.354-62.095 29.354-25.967 0-46.289-10.161-60.966-29.354-11.29-14.677-16.935-37.257-16.935-68.869v-101.61c0-30.483 5.645-54.192 16.935-68.869 13.548-19.193 33.87-29.354 60.966-29.354zM371.44 775.974c0 27.096 7.903 40.644 24.838 40.644s24.838-13.548 24.838-40.644v-123.061c0-27.096-7.903-40.644-24.838-40.644s-24.838 13.548-24.838 40.644v123.061z" />
<glyph unicode="&#xe910;" glyph-name="warning" d="M187.674 772.326c82.968 82.967 197.679 134.34 324.326 134.34s241.357-51.373 324.326-134.34v0c82.965-82.968 134.34-197.679 134.34-324.326s-51.375-241.357-134.34-324.326c-82.97-82.965-197.679-134.34-324.326-134.34s-241.358 51.375-324.326 134.34v0c-82.967 82.97-134.34 197.679-134.34 324.326s51.373 241.358 134.34 324.326v0zM512 842.667c-108.992 0-207.615-44.14-279.072-115.595-71.456-71.457-115.595-170.080-115.595-279.072s44.14-207.616 115.595-279.070c71.457-71.458 170.080-115.597 279.072-115.597s207.616 44.139 279.070 115.597c71.458 71.454 115.597 170.078 115.597 279.070s-44.139 207.615-115.597 279.072c-71.454 71.456-170.078 115.595-279.070 115.595zM512 170.667c29.453 0 53.333 23.881 53.333 53.333s-23.881 53.333-53.333 53.333c-29.453 0-53.333-23.881-53.333-53.333s23.881-53.333 53.333-53.333zM544 704c0 17.673-14.327 32-32 32s-32-14.327-32-32v-341.333c0-17.673 14.327-32 32-32s32 14.327 32 32v341.333z" />
<glyph unicode="&#xe911;" glyph-name="error" d="M675.84 532.48c0 0 0 0 0 0-12.8 0-23.040 5.12-30.72 12.8s-12.8 20.48-12.8 30.72c0 12.8 5.12 23.040 12.8 30.72 15.36 15.36 46.080 15.36 61.44 0 7.68-7.68 12.8-20.48 12.8-30.72 0-12.8-5.12-23.040-12.8-30.72s-17.92-12.8-30.72-12.8c0 0 0 0 0 0zM348.16 532.48c0 0 0 0 0 0-12.8 0-23.040 5.12-30.72 12.8s-12.8 20.48-12.8 30.72c0 12.8 5.12 23.040 12.8 30.72 15.36 15.36 46.080 15.36 61.44 0 7.68-7.68 12.8-20.48 12.8-30.72 0-12.8-5.12-23.040-12.8-30.72s-20.48-12.8-30.72-12.8zM512-53.76c-133.12 0-258.56 51.2-353.28 145.92-94.72 97.28-148.48 222.72-148.48 355.84s51.2 258.56 145.92 353.28c97.28 94.72 222.72 148.48 355.84 148.48s258.56-51.2 353.28-145.92c94.72-94.72 145.92-220.16 145.92-353.28s-51.2-258.56-145.92-353.28c-94.72-97.28-220.16-151.040-353.28-151.040zM512 898.56c-120.32 0-232.96-46.080-317.44-130.56s-133.12-199.68-133.12-320c0-120.32 46.080-232.96 130.56-317.44s197.12-130.56 317.44-130.56c120.32 0 232.96 46.080 317.44 130.56s130.56 197.12 130.56 317.44c0 120.32-46.080 232.96-130.56 317.44-81.92 84.48-194.56 133.12-314.88 133.12zM732.16 202.24c-10.24 0-20.48 5.12-23.040 15.36-10.24 30.72-30.72 56.32-53.76 79.36-23.040 20.48-53.76 35.84-84.48 43.52-110.080 25.6-222.72-28.16-250.88-122.88-5.12-12.8-17.92-20.48-33.28-17.92-12.8 5.12-20.48 17.92-17.92 33.28 35.84 117.76 176.64 186.88 312.32 156.16 40.96-10.24 76.8-28.16 107.52-56.32s53.76-61.44 69.12-99.84c5.12-12.8-2.56-28.16-15.36-33.28-5.12 2.56-7.68 2.56-10.24 2.56z" />
<glyph unicode="&#xe912;" glyph-name="help" d="M512-12.8c-256 0-460.8 204.8-460.8 460.8s204.8 460.8 460.8 460.8 460.8-204.8 460.8-460.8-204.8-460.8-460.8-460.8zM512 840.533c-217.6 0-392.533-174.933-392.533-392.533s174.933-392.533 392.533-392.533 392.533 174.933 392.533 392.533-174.933 392.533-392.533 392.533zM512 200.533c-21.333 0-34.133 17.067-34.133 34.133s17.067 34.133 34.133 34.133v0c21.333 0 34.133-17.067 34.133-34.133s-12.8-34.133-34.133-34.133zM507.733 371.2c-12.8 0-29.867 8.533-34.133 25.6s4.267 38.4 21.333 46.933c25.6 8.533 102.4 46.933 102.4 93.867 0 21.333-8.533 42.667-21.333 59.733s-34.133 29.867-55.467 29.867c-21.333 4.267-42.667 0-64-12.8-12.8-12.8-29.867-29.867-34.133-51.2-8.533-17.067-29.867-25.6-46.933-21.333-17.067 8.533-25.6 25.6-21.333 46.933 12.8 38.4 38.4 68.267 72.533 85.333 34.133 21.333 72.533 25.6 110.933 21.333 38.4-8.533 72.533-25.6 98.133-55.467s38.4-68.267 38.4-106.667c0-110.933-145.067-157.867-153.6-162.133-4.267 0-8.533 0-12.8 0z" />
<glyph unicode="&#xe913;" glyph-name="back" d="M512 104.96c-10.24 0-20.48 5.12-30.72 10.24l-296.96 296.96c0 0 0 0 0 0s0 0 0 0 0 0 0 0 0 0 0 0c-5.12 5.12-5.12 10.24-10.24 15.36 0 0 0 0 0 0v0c0 5.12-5.12 10.24-5.12 15.36v0c0 0 0 0 0 0v0c0 0 0 0 0 0v0c0 0 0 0 0 0v0c0 0 0 0 0 0v0c0 5.12 0 10.24 5.12 15.36 0 5.12 5.12 10.24 10.24 15.36v0c0 0 0 0 0 0s0 0 0 0 0 0 0 0 0 0 0 0v0l296.96 296.96c15.36 15.36 46.080 15.36 61.44 0s15.36-46.080 0-61.44l-225.28-220.16h496.64c25.6 0 40.96-20.48 40.96-40.96s-20.48-40.96-40.96-40.96h-496.64l225.28-225.28c15.36-15.36 15.36-46.080 0-61.44-10.24-10.24-20.48-15.36-30.72-15.36z" />
<glyph unicode="&#xe914;" glyph-name="mail" d="M733.867 72.533h-443.733c-76.8 0-115.2 0-149.333 17.067-29.867 17.067-55.467 42.667-68.267 72.533-17.067 34.133-17.067 72.533-17.067 149.333v273.067c0 25.6 0 51.2 0 68.267 0 4.267 0 12.8 0 17.067 0 25.6 8.533 42.667 17.067 59.733 12.8 34.133 38.4 59.733 68.267 72.533 34.133 17.067 72.533 17.067 149.333 17.067h443.733c76.8 0 115.2 0 149.333-17.067 29.867-12.8 55.467-38.4 68.267-68.267 8.533-17.067 12.8-38.4 17.067-59.733 0-4.267 4.267-12.8 0-17.067 0-21.333 0-42.667 0-68.267v-273.067c0-76.8 0-115.2-17.067-149.333-17.067-29.867-38.4-55.467-68.267-68.267-34.133-25.6-72.533-25.6-149.333-25.6zM119.467 601.6c0-4.267 0-8.533 0-17.067v-273.067c0-68.267 0-98.133 8.533-119.467 8.533-17.067 25.6-34.133 42.667-42.667 21.333-8.533 55.467-8.533 119.467-8.533h443.733c68.267 0 98.133 0 119.467 8.533 17.067 8.533 34.133 25.6 42.667 42.667 8.533 21.333 8.533 55.467 8.533 119.467v273.067c0 4.267 0 8.533 0 17.067l-298.667-209.067c-29.867-21.333-46.933-34.133-68.267-38.4-17.067-4.267-38.4-4.267-55.467 0-21.333 4.267-38.4 17.067-68.267 38.4l-294.4 209.067zM119.467 674.133l332.8-230.4c25.6-17.067 38.4-25.6 46.933-29.867 8.533 0 17.067-4.267 25.6 0s21.333 12.8 46.933 29.867l332.8 230.4c0 12.8-4.267 21.333-8.533 29.867-8.533 17.067-25.6 34.133-42.667 42.667-21.333 8.533-55.467 8.533-119.467 8.533h-443.733c-68.267 0-98.133 0-119.467-8.533-17.067-8.533-34.133-25.6-42.667-42.667-4.267-8.533-8.533-17.067-8.533-29.867z" />
<glyph unicode="&#xe915;" glyph-name="phone" d="M750.933 25.6c0 0 0 0 0 0-21.333 0-38.4 4.267-64 12.8-136.533 38.4-264.533 115.2-366.933 217.6-102.4 98.133-174.933 226.133-217.6 362.667-4.267 25.6-8.533 42.667-8.533 64 0 25.6 8.533 55.467 21.333 76.8s25.6 34.133 46.933 55.467l8.533 8.533c25.6 25.6 38.4 38.4 55.467 46.933 34.133 17.067 72.533 17.067 106.667 0 12.8-8.533 25.6-21.333 51.2-46.933l8.533-8.533c17.067-17.067 21.333-25.6 29.867-34.133 25.6-38.4 25.6-89.6 0-128-8.533-8.533-12.8-17.067-29.867-34.133-4.267-4.267-4.267-4.267-8.533-8.533 0 0-4.267-8.533 0-8.533 0 0 0-4.267 4.267-8.533 0 0 0 0 0 0 29.867-59.733 68.267-115.2 115.2-162.133s102.4-85.333 162.133-115.2c4.267 0 4.267-4.267 8.533-4.267s8.533 0 8.533 0c0 0 4.267 4.267 4.267 4.267 17.067 17.067 25.6 25.6 34.133 29.867 38.4 25.6 89.6 25.6 128 0 8.533-8.533 17.067-17.067 34.133-29.867l8.533-8.533c25.6-25.6 38.4-38.4 46.933-55.467 17.067-34.133 17.067-72.533 0-106.667-8.533-17.067-21.333-29.867-46.933-55.467l-8.533-8.533c-25.6-25.6-38.4-38.4-55.467-46.933-21.333 0-51.2-8.533-76.8-8.533zM277.333 819.2c-8.533 0-17.067 0-25.6-4.267s-21.333-17.067-38.4-34.133l-8.533-8.533c-21.333-21.333-29.867-29.867-34.133-42.667-8.533-12.8-12.8-34.133-12.8-46.933s4.267-21.333 8.533-46.933c34.133-128 106.667-243.2 200.533-341.333 93.867-93.867 213.333-162.133 341.333-200.533 25.6-8.533 34.133-8.533 46.933-8.533 0 0 0 0 0 0 12.8 0 34.133 4.267 46.933 12.8s21.333 17.067 42.667 38.4l8.533 8.533c17.067 17.067 29.867 29.867 34.133 38.4 8.533 17.067 8.533 34.133 0 46.933-4.267 8.533-17.067 17.067-34.133 38.4l-12.8 8.533c-12.8 12.8-21.333 21.333-25.6 21.333-17.067 12.8-38.4 12.8-59.733 0-4.267-4.267-12.8-8.533-25.6-21.333-8.533-8.533-8.533-8.533-12.8-12.8-17.067-12.8-42.667-17.067-64-12.8-4.267 0-8.533 4.267-17.067 8.533-68.267 29.867-128 76.8-179.2 128s-93.867 115.2-128 179.2c-4.267 8.533-4.267 12.8-8.533 17.067-4.267 21.333 0 46.933 12.8 64 4.267 4.267 4.267 8.533 12.8 12.8 12.8 12.8 21.333 21.333 21.333 25.6 12.8 17.067 12.8 42.667 0 59.733 0 4.267-8.533 12.8-21.333 25.6l-8.533 8.533c-17.067 17.067-29.867 29.867-38.4 34.133-8.533 0-17.067 4.267-21.333 4.267z" />
<glyph unicode="&#xe916;" glyph-name="pin" d="M512-12.8c-17.067 0-29.867 12.8-29.867 25.6-17.067 85.333-81.067 136.533-149.333 192-89.6 72.533-192 157.867-192 324.267 0 204.8 166.4 375.467 375.467 375.467 204.8 0 375.467-166.4 375.467-375.467 0-166.4-102.4-251.733-192-324.267-68.267-55.467-132.267-110.933-149.333-192-8.533-12.8-21.333-25.6-38.4-25.6zM512 840.533c-170.667 0-307.2-136.533-307.2-307.2 0-136.533 81.067-204.8 170.667-277.333 51.2-42.667 106.667-85.333 140.8-145.067 34.133 59.733 89.6 102.4 140.8 145.067 85.333 72.533 170.667 140.8 170.667 277.333-4.267 170.667-145.067 307.2-315.733 307.2zM512 371.2c-89.6 0-162.133 72.533-162.133 162.133s72.533 157.867 162.133 157.867c89.6 0 162.133-72.533 162.133-162.133s-72.533-157.867-162.133-157.867zM512 627.2c-51.2 0-98.133-42.667-98.133-98.133s42.667-98.133 98.133-98.133c51.2 0 98.133 42.667 98.133 98.133s-46.933 98.133-98.133 98.133z" />
<glyph unicode="&#xe917;" glyph-name="user" d="M853.333 21.333c-25.6 0-42.667 17.067-42.667 42.667 0 55.467 0 81.067-4.267 102.4-12.8 42.667-42.667 72.533-85.333 85.333-17.067 4.267-46.933 4.267-102.4 4.267h-213.333c-55.467 0-81.067 0-102.4-4.267-42.667-12.8-72.533-42.667-85.333-85.333-4.267-21.333-4.267-46.933-4.267-102.4 0-25.6-17.067-42.667-42.667-42.667s-42.667 17.067-42.667 42.667c0 64 0 93.867 8.533 128 21.333 68.267 72.533 119.467 140.8 140.8 29.867 8.533 64 8.533 128 8.533h213.333c64 0 93.867 0 128-8.533 68.267-21.333 119.467-72.533 140.8-140.8 8.533-29.867 8.533-64 8.533-128 0-25.6-17.067-42.667-42.667-42.667zM512 405.333c-128 0-234.667 106.667-234.667 234.667s106.667 234.667 234.667 234.667c128 0 234.667-106.667 234.667-234.667s-106.667-234.667-234.667-234.667zM512 789.333c-81.067 0-149.333-68.267-149.333-149.333s68.267-149.333 149.333-149.333 149.333 68.267 149.333 149.333-68.267 149.333-149.333 149.333z" />
<glyph unicode="&#xe918;" glyph-name="save" d="M726.4 32c-3.2 0-3.2 0 0 0-12.8 0-22.4 0-35.2 0h-358.4c-12.8 0-22.4 0-32 0 0 0-3.2 0-3.2 0-54.4 0-83.2 3.2-112 16-32 16-57.6 41.6-73.6 70.4-16 35.2-16 73.6-16 150.4v358.4c0 76.8 0 115.2 16 150.4 16 28.8 41.6 54.4 70.4 70.4 28.8 12.8 60.8 16 115.2 16 0 0 3.2 0 3.2 0 9.6 0 19.2 0 32 0h294.4c22.4 0 35.2 0 48-3.2s22.4-6.4 35.2-12.8c12.8-6.4 19.2-16 35.2-32l3.2-3.2c0 0 0 0 0 0l131.2-131.2c16-16 25.6-25.6 32-35.2s9.6-22.4 12.8-35.2c3.2-12.8 3.2-25.6 3.2-48v-294.4c0-76.8 0-115.2-16-150.4-16-28.8-38.4-54.4-70.4-70.4-28.8-12.8-60.8-16-115.2-16 0 0 0 0 0 0zM329.6 96c3.2 0 3.2 0 0 0h361.6c0 0 0 0 3.2 0v240c0 12.8 0 28.8 0 32s-3.2 3.2-3.2 3.2-16 0-32 0h-291.2c-12.8 0-28.8 0-32 0s-3.2-3.2-3.2-3.2 0-16 0-32v-240zM265.6 800c-25.6-3.2-41.6-3.2-54.4-9.6-19.2-9.6-32-22.4-41.6-41.6-9.6-22.4-9.6-54.4-9.6-121.6v-358.4c0-67.2 0-99.2 9.6-121.6 9.6-19.2 22.4-32 41.6-41.6 12.8-6.4 28.8-6.4 54.4-9.6v240c0 25.6 0 44.8 9.6 60.8 6.4 12.8 19.2 25.6 32 32 16 9.6 32 9.6 60.8 9.6h291.2c25.6 0 44.8 0 60.8-9.6 12.8-6.4 25.6-19.2 32-32 9.6-16 9.6-32 9.6-60.8v-240c25.6 0 41.6 3.2 54.4 9.6 19.2 9.6 32 22.4 41.6 41.6s9.6 54.4 9.6 121.6v294.4c0 19.2 0 28.8 0 35.2s-3.2 9.6-6.4 16c-3.2 6.4-9.6 12.8-22.4 25.6l-76.8 76.8v-25.6c0-25.6 0-44.8-9.6-60.8-6.4-12.8-19.2-25.6-32-32-16-9.6-32-9.6-60.8-9.6h-291.2c-25.6 0-44.8 0-60.8 9.6-12.8 6.4-25.6 19.2-32 32-9.6 16-9.6 32-9.6 60.8v108.8zM329.6 800v-112c0-12.8 0-28.8 0-32s3.2-3.2 3.2-3.2 16 0 32 0h291.2c12.8 0 28.8 0 32 0s3.2 3.2 3.2 3.2 0 16 0 32v89.6c-9.6 9.6-12.8 12.8-19.2 16 0 0-6.4 3.2-12.8 6.4-6.4 0-16 0-35.2 0h-294.4c3.2 0 3.2 0 0 0z" />
<glyph unicode="&#xe919;" glyph-name="home" d="M757.76 23.040h-491.52c-51.2 0-81.92 0-107.52 15.36-25.6 10.24-46.080 30.72-56.32 56.32-15.36 25.6-15.36 56.32-15.36 107.52v307.2c0 25.6 0 40.96 5.12 61.44 0 15.36 10.24 25.6 20.48 40.96 10.24 10.24 20.48 20.48 40.96 40.96l291.84 225.28c15.36 10.24 25.6 20.48 46.080 25.6 15.36 5.12 30.72 5.12 46.080 0s30.72-15.36 46.080-25.6l286.72-225.28c20.48-15.36 35.84-25.6 46.080-40.96 10.24-10.24 15.36-25.6 20.48-40.96s5.12-30.72 5.12-61.44v-307.2c0-51.2 0-81.92-15.36-107.52-10.24-25.6-30.72-46.080-56.32-56.32-30.72-15.36-56.32-15.36-112.64-15.36zM512 821.76c0 0-5.12-5.12-15.36-15.36v0l-291.84-225.28c-15.36-10.24-20.48-15.36-25.6-20.48s-5.12-10.24-5.12-15.36c0-5.12 0-15.36 0-35.84v-307.2c0-35.84 0-61.44 5.12-71.68s10.24-15.36 20.48-20.48c10.24-5.12 35.84-5.12 71.68-5.12h496.64c35.84 0 61.44 0 71.68 5.12s15.36 10.24 20.48 20.48c5.12 10.24 5.12 35.84 5.12 71.68v307.2c0 20.48 0 30.72 0 35.84s-5.12 10.24-5.12 15.36c-5.12 5.12-10.24 10.24-25.6 25.6l-307.2 220.16c-10.24 10.24-10.24 10.24-15.36 15.36zM471.040 842.24v0 0zM680.96 192h-337.92c-25.6 0-40.96 20.48-40.96 40.96s20.48 40.96 40.96 40.96h343.040c25.6 0 40.96-20.48 40.96-40.96s-20.48-40.96-46.080-40.96z" />
<glyph unicode="&#xe91a;" glyph-name="telegram" d="M401.8 312.6l-17-238.2c24.2 0 34.8 10.4 47.4 23l113.6 108.6 235.4-172.4c43.2-24 73.6-11.4 85.2 39.8l154.6 724.2c13.8 63.6-23 88.6-65 72.8l-908.4-347.8c-62-24-61-58.6-10.6-74.2l232.2-72.2 539.4 337.6c25.4 16.8 48.4 7.6 29.4-9.4l-436.2-391.8z" />
<glyph unicode="&#xe91b;" glyph-name="ok" horiz-adv-x="614" d="M257.34 238.375c-79.347 8.578-151.187 27.879-212.306 76.13-7.506 6.434-15.012 11.795-22.517 18.228-26.806 25.734-30.023 55.757-8.578 85.78 18.228 25.734 48.251 33.24 80.419 18.228 6.434-3.217 11.795-6.434 17.156-10.723 113.659-78.274 271.28-80.419 386.010-3.217 11.795 8.578 23.59 16.084 37.529 19.301 27.879 7.506 52.54-3.217 67.552-26.806 17.156-26.806 16.084-53.613-4.289-75.058-32.168-32.168-69.696-55.757-112.586-72.913-39.673-15.012-83.636-23.59-127.598-28.951 6.434-7.506 9.65-10.723 13.939-15.012 58.974-58.974 117.948-117.948 176.921-177.994 20.373-20.373 24.662-45.035 12.867-68.624-11.795-25.734-38.601-42.89-65.407-40.746-17.156 1.072-30.023 9.65-41.818 21.445-43.962 45.035-90.069 88.997-132.959 134.031-12.867 12.867-19.301 10.723-30.023-1.072-45.035-46.107-90.069-91.141-136.176-136.176-20.373-20.373-45.035-23.59-68.624-12.867-25.734 11.795-41.818 38.601-39.673 64.335 1.072 17.156 9.65 31.095 21.445 42.89 57.902 57.902 116.875 116.875 174.777 174.777 4.289 5.361 7.506 9.65 13.939 15.012zM305.592 442.103c-141.537 0-257.34 117.948-257.34 259.485 1.072 143.682 116.875 258.413 260.557 258.413s258.413-117.948 257.34-262.702c-1.072-141.537-117.948-256.268-260.557-255.196zM434.262 701.587c0 70.769-56.829 126.526-126.526 126.526-70.769 0-127.598-56.829-126.526-127.598 0-69.696 56.829-125.453 127.598-125.453 69.696-1.072 125.453 55.757 125.453 126.526z" />
<glyph unicode="&#xe91c;" glyph-name="vk" horiz-adv-x="1795" d="M1785.209 35.487c-2.291 4.582-4.254 8.509-6.218 11.781-31.090 55.962-90.651 125.014-178.357 206.502l-3.927 3.927h-0.982c-39.926 37.962-65.125 63.489-75.597 76.579-19.308 24.872-23.563 50.071-13.090 75.597 7.527 19.308 35.671 60.216 84.106 122.396 25.526 33.053 45.817 59.562 60.871 79.524 107.669 143.34 154.467 234.973 140.068 274.572l-5.563 9.163c-3.6 5.563-13.418 10.8-28.799 15.381-15.709 4.582-35.671 5.563-59.889 2.291l-269.009-1.964c-4.254 1.636-10.472 1.309-18.654-0.327-8.182-1.964-12.109-2.945-12.109-2.945l-4.582-2.291-3.6-2.945c-3.273-1.964-6.545-5.236-10.145-9.818s-6.872-10.145-9.163-16.363c-29.453-75.27-62.507-145.304-100.142-210.102-22.908-38.617-44.18-71.997-63.489-100.469s-35.344-49.089-48.435-62.507c-13.090-13.418-24.872-24.217-35.671-32.072-10.472-8.182-18.654-11.454-24.217-10.145s-10.8 2.618-16.036 3.6c-8.836 5.563-15.709 13.090-20.945 22.908s-8.836 21.926-10.8 36.326c-1.964 14.727-2.945 27.163-3.273 37.962-0.327 10.472 0 25.526 0.327 44.835 0.655 19.308 0.982 32.399 0.982 39.271 0 23.563 0.327 49.416 1.309 77.234s1.636 49.744 2.291 65.779c0.655 16.036 0.982 33.381 0.982 51.38s-0.982 32.072-3.273 42.544c-2.291 10.145-5.563 20.29-9.818 29.781s-10.8 17.018-19.308 22.581c-8.509 5.236-18.981 9.491-31.417 12.763-33.053 7.527-74.943 11.454-125.996 12.109-115.85 1.309-190.139-6.218-223.192-22.581-13.090-6.872-24.872-16.036-35.344-28.144-11.127-13.745-12.763-21.272-4.582-22.581 37.308-5.563 63.816-18.981 79.524-40.253l5.563-11.127c4.254-8.182 8.836-22.581 13.090-42.871 4.254-20.617 7.2-43.198 8.509-68.070 2.945-45.489 2.945-84.433 0-116.832-3.273-32.399-6.218-57.598-8.836-75.597-2.945-17.999-6.872-32.726-12.763-43.853-5.563-11.127-9.491-17.999-11.127-20.617-1.964-2.618-3.273-3.927-4.582-4.582-8.182-2.945-16.363-4.582-25.199-4.582s-19.308 4.254-31.744 13.090c-12.436 8.836-25.526 20.617-38.617 35.999-13.418 15.381-28.472 36.653-45.489 64.143-16.69 27.49-34.362 59.889-52.362 97.197l-15.054 27.163c-9.491 17.345-22.254 42.871-38.29 76.252-16.363 33.381-30.435 65.452-42.871 96.869-4.909 13.090-12.436 22.908-22.581 29.781l-4.582 2.945c-2.945 2.618-8.182 5.236-15.054 7.854-6.872 2.945-14.072 4.909-21.599 6.218l-255.918-1.964c-26.181 0-43.853-5.891-53.344-17.672l-3.6-5.563c-2.618-4.254-3.6-9.163-3.6-16.036s1.964-15.381 5.563-25.199c37.308-88.033 78.215-172.467 122.068-254.282s82.143-147.267 114.541-197.011c32.399-49.744 65.452-96.869 99.16-141.050s55.962-72.652 66.761-85.088c10.8-12.436 19.636-21.926 25.854-28.144l23.236-22.581c15.054-15.054 36.981-32.726 65.779-53.671 29.126-20.945 61.198-41.562 96.215-61.852 35.344-20.29 76.252-36.653 122.723-49.416 46.798-12.763 92.288-17.999 136.468-15.381h107.342c21.926 1.964 38.29 8.836 49.416 20.617l3.6 4.582c2.618 3.6 4.909 9.491 6.872 17.345 2.291 7.854 3.273 16.363 3.273 25.854-0.655 26.835 1.309 51.053 6.218 72.325 4.582 21.599 9.818 37.635 16.036 48.435 5.891 10.8 12.763 19.963 19.963 27.49 7.527 7.527 12.763 12.109 16.036 13.418 2.945 1.636 5.563 2.618 7.527 3.273 15.054 4.909 32.399 0 52.689-14.399 20.29-14.727 39.271-32.726 56.943-54.325s38.944-45.489 64.143-72.325c24.872-26.835 46.798-46.798 65.452-59.889l18.654-11.127c12.436-7.527 28.799-14.399 48.762-20.617s37.308-7.854 52.362-4.582l239.228 3.6c23.563 0 42.217 3.927 54.98 11.781 13.090 7.854 20.945 16.363 23.236 25.854 2.618 9.491 2.618 19.963 0.327 31.744-1.964 12.109-4.254 20.29-6.218 25.199z" />
<glyph unicode="&#xe91d;" glyph-name="google" d="M931.2 576h-93.4v-92.8h-92.8v-93.4h92.8v-92.8h93.4v92.8h92.8v93.4h-92.8v92.8zM320 128c184.6 0 307.4 129.6 307.4 312.6 0 21-2.2 37.2-5.2 53.2h-302.2v-110h181.6c-7.4-46.8-55-138-181.6-138-109 0-198.2 90.4-198.2 202.2s89.2 202.2 198.2 202.2c62.4 0 103.8-26.6 127.4-49.4l86.8 83.4c-55.8 52.4-127.8 83.8-214.2 83.8-176.8 0-320-143.2-320-320s143.2-320 320-320v0z" />
<glyph unicode="&#xe91e;" glyph-name="tiktok" horiz-adv-x="900" d="M899.205 703.599c-58.491 0-112.576 19.43-155.844 52.081-49.678 37.459-85.534 92.545-98.153 155.844-3.205 15.624-4.808 31.85-5.008 48.476h-167.261v-456.914l-0.2-250.191c0-66.905-43.668-123.593-103.962-143.624-17.628-5.809-36.457-8.613-56.088-7.412-25.239 1.402-48.676 9.014-69.308 21.233-43.668 26.041-73.114 73.315-73.915 127.599-1.202 84.532 67.105 153.64 151.637 153.64 16.626 0 32.651-2.804 47.674-7.612v169.465c-15.825 2.404-31.85 3.606-48.275 3.606-92.545 0-179.080-38.46-240.977-107.768-46.473-52.282-74.516-119.186-78.923-189.095-5.609-91.944 28.044-179.48 93.346-243.981 9.615-9.415 19.631-18.228 30.247-26.441 56.088-43.067 124.394-66.504 196.507-66.504 16.225 0 32.451 1.202 48.275 3.606 67.305 10.016 129.402 40.864 178.479 89.34 60.294 59.493 93.546 138.617 93.947 222.748l-0.801 373.784c28.845-22.235 60.094-40.463 93.947-54.685 52.482-22.235 108.169-33.252 165.258-33.252v166.059c0 0-0.601 0-0.601 0v0z" />
<glyph unicode="&#xe91f;" glyph-name="flickr" horiz-adv-x="1138" d="M256 960c142.222 0 256-108.089 256-238.933s-113.778-233.244-256-233.244-256 108.089-256 233.244 113.778 238.933 256 238.933zM844.506 960c142.222 0 256-108.089 256-238.933s-113.778-233.244-256-233.244-256 108.089-256 233.244 113.778 238.933 256 238.933zM232.656 120.233c0-17.067-11.378-28.444-28.444-28.444h-51.2v-130.844c0-17.067-11.378-28.444-28.444-28.444s-28.444 17.067-28.444 28.444v130.844h-28.444c-17.067 0-28.444 11.378-28.444 28.444s11.378 28.444 28.444 28.444h28.444v22.756c0 39.822 34.133 79.644 85.333 79.644h28.444c17.067 0 28.444-11.378 28.444-28.444s-17.067-28.444-34.133-28.444h-22.756c-17.067 0-28.444-11.378-28.444-22.756v-28.444h56.889c11.378 0 22.756-11.378 22.756-22.756zM312.889-64c-22.756 0-39.822 11.378-39.822 28.444v261.689c0 17.067 17.067 28.444 39.822 28.444s39.822-11.378 39.822-28.444v-261.689c0-17.067-17.067-28.444-39.822-28.444zM472.178-64c-22.756 0-39.822 11.378-39.822 28.444v176.356c0 17.067 17.067 28.444 39.822 28.444s39.822-11.378 39.822-28.444v-176.356c0-17.067-17.067-28.444-39.822-28.444zM648.533-64c-56.889 0-96.711 51.2-96.711 119.467 0 62.578 45.511 119.467 96.711 119.467 34.133 5.689 68.267-11.378 91.022-39.822 5.689-11.378 5.689-34.133-5.689-39.822-11.378-11.378-28.444-5.689-34.133 5.689-17.067 11.378-34.133 22.756-56.889 17.067-28.444 0-51.2-28.444-51.2-56.889 0-34.133 22.756-56.889 51.2-56.889 22.756 0 39.822 5.689 56.889 22.756 11.378 11.378 22.756 11.378 34.133 0s11.378-28.444 0-39.822c-22.756-39.822-51.2-51.2-85.333-51.2zM932.978-58.311c-5.689-5.689-11.378-5.689-17.067-5.689s-11.378 0-17.067 5.689l-62.578 62.578v-39.822c0-17.067-11.378-28.444-28.444-28.444s-28.444 11.378-28.444 28.444v261.689c0 17.067 11.378 28.444 28.444 28.444s28.444-11.378 28.444-28.444v-108.089l39.822 22.756c11.378 5.689 28.444 5.689 34.133-5.689s5.689-28.444-5.689-34.133l-51.2-39.822 79.644-79.644c11.378-11.378 11.378-28.444 0-39.822zM1137.778 140.8c0-17.067-11.378-28.444-28.444-28.444-45.511 0-79.644-39.822-79.644-91.022v-56.889c0-17.067-11.378-28.444-28.444-28.444s-28.444 11.378-28.444 28.444v176.356c0 17.067 11.378 28.444 28.444 28.444s28.444-11.378 28.444-28.444c22.756 17.067 51.2 28.444 79.644 28.444 17.067 5.689 28.444-11.378 28.444-28.444zM472.178 209.067c-22.756 0-39.822 17.067-39.822 39.822s17.067 39.822 39.822 39.822v0c22.756 0 39.822-17.067 39.822-39.822 0-17.067-17.067-39.822-39.822-39.822v0z" />
<glyph unicode="&#xe920;" glyph-name="check2" d="M801.19 694.335c12.634-12.887 12.634-33.782 0-46.669l-395.507-403.335c-12.637-12.885-33.126-12.885-45.763 0l-179.775 183.334c-12.637 12.89-12.637 33.783 0 46.669 12.637 12.89 33.126 12.89 45.763 0l156.893-160 372.625 380.001c12.638 12.887 33.126 12.887 45.764 0z" />
<glyph unicode="&#xe921;" glyph-name="alert" d="M661.333-21.333h-298.667c-12.8 0-21.333 0-29.867 4.267-8.533 0-17.067 4.267-25.6 8.533s-12.8 12.8-21.333 21.333l-209.067 209.067c-8.533 8.533-12.8 12.8-21.333 21.333-4.267 8.533-8.533 17.067-8.533 25.6-4.267 8.533-4.267 17.067-4.267 29.867v298.667c0 12.8 0 21.333 4.267 29.867 0 8.533 4.267 17.067 8.533 25.6s12.8 12.8 21.333 21.333l209.067 209.067c8.533 8.533 12.8 17.067 21.333 21.333s17.067 8.533 25.6 8.533c8.533 4.267 17.067 4.267 29.867 4.267h298.667c12.8 0 21.333 0 29.867-4.267 8.533 0 17.067-4.267 25.6-8.533s12.8-12.8 21.333-21.333l209.067-209.067c8.533-8.533 12.8-12.8 21.333-21.333 4.267-8.533 8.533-17.067 8.533-25.6 4.267-8.533 4.267-17.067 4.267-29.867v-298.667c0-12.8 0-21.333-4.267-29.867 0-8.533-4.267-17.067-8.533-25.6s-12.8-12.8-21.333-21.333l-209.067-209.067c-8.533-8.533-12.8-12.8-21.333-21.333-8.533-4.267-17.067-8.533-25.6-8.533-8.533-4.267-17.067-4.267-29.867-4.267zM358.4 832c0 0-4.267 0-4.267 0s-4.267-4.267-4.267-8.533l-213.333-209.067c-4.267-4.267-8.533-4.267-8.533-8.533 0 0 0-4.267 0-8.533v-298.667c0-4.267 0-8.533 0-12.8 0 0 4.267-4.267 8.533-4.267l209.067-209.067c4.267-4.267 4.267-8.533 8.533-8.533 0 0 4.267 0 8.533 0h298.667c4.267 0 8.533 0 12.8 0 0 0 4.267 4.267 4.267 8.533l209.067 209.067c4.267 4.267 4.267 4.267 8.533 8.533 0 0 0 4.267 0 8.533v298.667c0 4.267 0 8.533 0 12.8 0 0-4.267 4.267-8.533 4.267l-209.067 209.067c-4.267 4.267-4.267 8.533-8.533 8.533 0 0-4.267 0-8.533 0h-298.667c0 0-4.267 0-4.267 0zM512 234.667c-25.6 0-42.667 17.067-42.667 42.667s17.067 42.667 42.667 42.667v0c25.6 0 42.667-17.067 42.667-42.667s-17.067-42.667-42.667-42.667zM512 405.333c-25.6 0-42.667 17.067-42.667 42.667v170.667c0 25.6 17.067 42.667 42.667 42.667s42.667-17.067 42.667-42.667v-170.667c0-25.6-17.067-42.667-42.667-42.667z" />
<glyph unicode="&#xe922;" glyph-name="upload" d="M512 23.040c-25.6 0-40.96 20.48-40.96 40.96v281.6l-97.28-97.28c-15.36-15.36-46.080-15.36-61.44 0s-15.36 46.080 0 61.44l168.96 168.96c0 0 0 0 0 0s0 0 0 0 0 0 0 0 0 0 0 0 0 0 0 0v0c0 0 0 0 0 0s0 0 0 0v0c0 0 5.12 5.12 5.12 5.12s0 0 0 0 0 0 0 0 0 0 0 0 0 0 0 0 0 0 0 0 0 0 0 0 0 0 0 0 0 0 0 0 0 0 0 0 0 0 0 0 0 0 0 0v0c0 0 5.12 0 5.12 5.12 0 0 0 0 0 0v0c5.12 0 10.24 5.12 15.36 5.12 0 0 0 0 0 0v0c0 0 0 0 0 0v0c0 0 0 0 0 0v0c0 0 0 0 0 0v0c5.12 0 10.24 0 15.36-5.12 0 0 5.12 0 5.12-5.12v0c0 0 0 0 0 0s0 0 0 0 0 0 0 0 0 0 0 0 0 0 0 0 0 0 0 0 0 0 0 0v0c0 0 0 0 0 0v0c0 0 5.12-5.12 5.12-5.12v0c0 0 0 0 0 0v0c0 0 0 0 0 0l168.96-168.96c15.36-15.36 15.36-46.080 0-61.44s-46.080-15.36-61.44 0l-87.040 97.28v-281.6c0-25.6-15.36-40.96-40.96-40.96zM855.040 202.24c-10.24 0-25.6 5.12-30.72 15.36-15.36 20.48-10.24 46.080 5.12 61.44 46.080 35.84 71.68 92.16 71.68 148.48 0 107.52-87.040 189.44-194.56 189.44-25.6 0-46.080 15.36-61.44 35.84-51.2 81.92-143.36 138.24-240.64 138.24-153.6 0-276.48-122.88-276.48-276.48 0-71.68 30.72-143.36 81.92-194.56 15.36-15.36 15.36-46.080 0-61.44s-46.080-15.36-61.44 0c-66.56 66.56-107.52 158.72-107.52 256 0 199.68 163.84 363.52 363.52 363.52 122.88 0 240.64-66.56 307.2-168.96 148.48-5.12 266.24-128 266.24-276.48 0-81.92-35.84-158.72-102.4-215.040-5.12-10.24-10.24-15.36-20.48-15.36zM716.8 693.76c0 0 0 0 0 0s0 0 0 0z" />
<glyph unicode="&#xe923;" glyph-name="trash" d="M578.56 23.040h-133.12c-71.68 0-107.52 0-143.36 15.36-30.72 15.36-56.32 35.84-71.68 66.56-20.48 35.84-20.48 76.8-25.6 148.48l-25.6 409.6h-51.2c-20.48 0-35.84 20.48-35.84 40.96s15.36 40.96 40.96 40.96h87.040c0 0 0 0 0 0h599.040c0 0 0 0 0 0h87.040c20.48 0 40.96-15.36 40.96-40.96s-15.36-40.96-40.96-40.96h-51.2l-35.84-409.6c-5.12-71.68-5.12-107.52-25.6-143.36-15.36-30.72-40.96-51.2-71.68-66.56-35.84-20.48-71.68-20.48-143.36-20.48zM256 663.040l25.6-409.6c5.12-61.44 5.12-92.16 15.36-112.64 10.24-15.36 20.48-30.72 40.96-35.84 20.48-10.24 51.2-10.24 112.64-10.24h128c61.44 0 92.16 0 112.64 10.24 15.36 10.24 30.72 20.48 40.96 35.84s10.24 51.2 15.36 112.64l25.6 409.6h-517.12zM599.040 258.56c-20.48 0-40.96 15.36-40.96 40.96v209.92c0 20.48 15.36 40.96 40.96 40.96s40.96-15.36 40.96-40.96v-215.040c-5.12-15.36-20.48-35.84-40.96-35.84zM424.96 258.56c-20.48 0-40.96 15.36-40.96 40.96v209.92c5.12 25.6 20.48 40.96 40.96 40.96s40.96-15.36 40.96-40.96v-215.040c0-15.36-20.48-35.84-40.96-35.84zM640 791.040h-256c-20.48 0-40.96 15.36-40.96 40.96s15.36 40.96 40.96 40.96h256c20.48 0 40.96-15.36 40.96-40.96s-20.48-40.96-40.96-40.96z" />
<glyph unicode="&#xe924;" glyph-name="eye-off" d="M896 29.867c-8.533 0-17.067 4.267-25.6 8.533l-136.533 136.533c-68.267-42.667-145.067-64-221.867-64-234.667 0-384 200.533-439.467 285.867-8.533 8.533-12.8 17.067-12.8 29.867-4.267 8.533-4.267 25.6 0 34.133 4.267 12.8 8.533 21.333 17.067 29.867 25.6 42.667 81.067 119.467 157.867 179.2l-128 128c-12.8 12.8-12.8 38.4 0 51.2s38.4 12.8 51.2 0l153.6-153.6c4.267 0 4.267-4.267 4.267-4.267l311.467-311.467c0 0 0 0 0 0s0 0 0 0l132.267-132.267c4.267 0 4.267-4.267 8.533-8.533l153.6-153.6c12.8-12.8 12.8-38.4 0-51.2-8.533-4.267-17.067-4.267-25.6-4.267zM281.6 627.2c-72.533-55.467-123.733-128-149.333-166.4-4.267-8.533-4.267-8.533-4.267-12.8s4.267-8.533 4.267-12.8c46.933-76.8 179.2-251.733 379.733-251.733 55.467 0 115.2 17.067 166.4 42.667l-81.067 81.067c-25.6-17.067-55.467-25.6-89.6-25.6-89.6 0-162.133 72.533-162.133 162.133 0 29.867 8.533 59.733 25.6 89.6l-89.6 93.867zM426.667 482.133c-4.267-12.8-8.533-21.333-8.533-34.133 0-51.2 42.667-93.867 93.867-93.867 12.8 0 25.6 4.267 34.133 8.533l-119.467 119.467zM861.867 302.933c-8.533 0-17.067 4.267-21.333 8.533-17.067 12.8-17.067 34.133-4.267 51.2 25.6 29.867 42.667 59.733 55.467 76.8 4.267 4.267 4.267 4.267 4.267 8.533s-4.267 8.533-4.267 12.8c-46.933 72.533-183.467 251.733-379.733 251.733-17.067 0-34.133 0-46.933-4.267-21.333-4.267-38.4 8.533-42.667 29.867s8.533 38.4 29.867 38.4c21.333 4.267 38.4 4.267 59.733 4.267 234.667 0 384-200.533 439.467-285.867 8.533-12.8 12.8-17.067 17.067-29.867 4.267-8.533 4.267-25.6 0-34.133-4.267-12.8-8.533-21.333-17.067-34.133-12.8-21.333-34.133-51.2-59.733-85.333-8.533-4.267-17.067-8.533-29.867-8.533z" />
<glyph unicode="&#xe925;" glyph-name="eye" d="M512 115.2c-234.667 0-384 200.533-439.467 285.867 0 0 0 0 0 0v0c-8.533 8.533-12.8 17.067-12.8 29.867-4.267 8.533-4.267 25.6 0 34.133 4.267 12.8 8.533 21.333 12.8 29.867 55.467 89.6 204.8 285.867 439.467 285.867s384-200.533 439.467-285.867c8.533-12.8 12.8-17.067 17.067-29.867s4.267-25.6 0-34.133c-4.267-12.8-8.533-21.333-12.8-29.867-59.733-89.6-209.067-285.867-443.733-285.867zM132.267 435.2c46.933-76.8 179.2-251.733 379.733-251.733 196.267 0 332.8 174.933 379.733 251.733 4.267 8.533 4.267 8.533 4.267 12.8s-4.267 8.533-4.267 12.8c-46.933 72.533-183.467 251.733-379.733 251.733s-332.8-174.933-379.733-251.733c-4.267-8.533-4.267-8.533-4.267-12.8s0-4.267 4.267-12.8v0zM512 285.867c-89.6 0-162.133 72.533-162.133 162.133s72.533 162.133 162.133 162.133 162.133-72.533 162.133-162.133c0-89.6-72.533-162.133-162.133-162.133zM512 541.867c-51.2 0-93.867-42.667-93.867-93.867s42.667-93.867 93.867-93.867 93.867 42.667 93.867 93.867c0 51.2-42.667 93.867-93.867 93.867z" />
<glyph unicode="&#xe926;" glyph-name="drop" horiz-adv-x="1707" d="M0 874.667l853.333-853.333 853.333 853.333z" />
<glyph unicode="&#xe927;" glyph-name="edit" d="M768 794.511c-12.689 0-24.858-5.041-33.83-14.013l-524.975-524.975-22.554-90.214 90.214 22.554 524.976 524.976c4.442 4.443 7.966 9.717 10.372 15.522 2.402 5.804 3.639 12.026 3.639 18.309s-1.237 12.504-3.639 18.309c-2.406 5.804-5.931 11.079-10.372 15.521s-9.715 7.967-15.522 10.371c-5.803 2.404-12.023 3.642-18.308 3.642zM673.83 840.837c24.977 24.976 58.85 39.007 94.17 39.007 17.489 0 34.807-3.445 50.965-10.138s30.839-16.502 43.204-28.869c12.369-12.367 22.178-27.048 28.868-43.205 6.694-16.158 10.138-33.475 10.138-50.964s-3.443-34.807-10.138-50.964c-6.69-16.158-16.499-30.839-28.868-43.206l-533.332-533.334c-5.468-5.466-12.32-9.348-19.822-11.221l-170.667-42.667c-14.54-3.635-29.921 0.623-40.518 11.221s-14.858 25.98-11.223 40.521l42.667 170.667c1.876 7.501 5.755 14.353 11.223 19.819l533.333 533.334zM469.333 106.667c0 23.565 19.102 42.667 42.667 42.667h384c23.565 0 42.667-19.102 42.667-42.667s-19.102-42.667-42.667-42.667h-384c-23.565 0-42.667 19.102-42.667 42.667z" />
</font>
</defs>
</svg>
